[MV]Bằng Cường - Nếu Một Mai [720p.x264.AC-3]-MF

Thảo luận trong 'Music - Clip - Movie' bắt đầu bởi fabergash, 28/8/11.

  1. fabergash

    fabergash New Member

    Bằng Cường - Nếu Một Mai [720p.x264.AC-3]


    [​IMG]



    [​IMG]

    Video
    ID : 1
    Format : AVC
    Format/Info : Advanced Video Codec
    Format profile : High@L4.1
    Format settings, CABAC : Yes
    Format settings, ReFrames : 3 frames
    Format_Settings_GOP : M=3, N=24
    Muxing mode : Container profile=Unknown@4.1
    Codec ID : V_MPEG4/ISO/AVC
    Duration : 5mn 9s
    Width : 1 280 pixels
    Height : 720 pixels
    Display aspect ratio : 16:9
    Frame rate : 20.000 fps
    Resolution : 8 bits
    Colorimetry : 4:2:0
    Scan type : Progressive
    Bits/(Pixel*Frame) : 0.265
    Stream size : 181 MiB (89%)
    Writing library : x264 core 115 r1995 c1e60b9


    Audio
    ID : 2
    Format : AC-3
    Format/Info : Audio Coding 3
    Format_Settings_ModeExtension : CM (complete main)
    Codec ID : A_AC3
    Duration : 5mn 9s
    Bit rate mode : Constant
    Bit rate : 512 Kbps
    Channel(s) : 2 channels
    Channel positions : Front: L R
    Sampling rate : 48.0 KHz
    Stream size : 18.9 MiB (9%)



    [​IMG]



    [​IMG]